<svg xmlns="http://www.w3.org/2000/svg">
<defs>
<font id="FontID1" horiz-adv-x="739" font-variant="normal" style="fill-rule:nonzero" font-style="normal" font-weight="400"><font-face font-family="Century Gothic" id="font-face2"/><missing-glyph id="missing-glyph6"><path d="M0 0z" id="path4"/></missing-glyph><glyph unicode="f" horiz-adv-x="313" id="glyph10"><path d="M295.999 735.333v-66.499C270.833 679.668 249.165 685 231.165 685c-13.5 0-24.661-2.666-33.501-7.999-8.832-5.332-14.493-11.498-16.663-18.505-2.33-6.998-3.499-25.662-3.499-55.833v-71.664h111.5v-58.996H177.333L176.997 0h-67.996v472.003H39.003V531h69.998v82.666c0 38.002 3.5 65.17 10.497 81.336 6.998 16.167 19.001 29.33 35.832 39.163C172.001 743.996 192.331 749 216.17 749c22.163 0 48.835-4.5 79.83-13.668z" id="path8"/></glyph><glyph unicode="t" horiz-adv-x="338" id="glyph14"><path d="M135 728.999h67.996v-198h108v-58.996h-108V0H135v472.003H41.997v58.996H135v198z" id="path12"/></glyph><glyph unicode="c" horiz-adv-x="646" id="glyph18"><path d="M591.997 420.67 537.829 387c-46.993 61.999-111.162 93.003-192.5 93.003-64.992 0-118.992-20.835-162-62.336-42.829-41.5-64.328-91.833-64.328-151.166 0-38.666 9.833-75.003 29.666-109 19.666-33.999 46.834-60.503 81.328-79.335 34.335-18.833 73-28.17 115.839-28.17C424.168 49.996 488.169 81 537.828 143l54.168-35.663c-25.494-38.17-59.66-67.668-102.499-88.84-42.998-20.994-91.833-31.5-146.666-31.5-84.33 0-154.169 26.672-209.666 79.84-55.497 53.326-83.17 118-83.17 194.332 0 51.165 13.004 98.831 39.003 142.83 25.83 44 61.503 78.334 106.831 103.005 45.505 24.661 96.174 37 152.335 37 35.336 0 69.334-5.332 102.171-16.006 32.66-10.666 60.493-24.662 83.33-41.829 23.004-17.167 42.333-39.003 58.331-65.498z" id="path16"/></glyph><glyph unicode="ü" horiz-adv-x="607" id="glyph22"><path d="M67.004 530.999H135V283.163c0-60.493 3.33-101.994 9.833-124.831 9.664-32.501 28.497-58.163 56.001-76.996 27.496-18.833 60.502-28.338 98.664-28.338 38.17 0 70.503 9.169 97.166 27.505 26.504 18.496 45 42.493 55 72.496 6.84 20.498 10.338 63.833 10.338 130.163v247.836H532V270.663c0-73.16-8.503-128.16-25.67-165.162-17-37.169-42.83-66.17-77.165-87.006-34.335-20.994-77.333-31.5-129.162-31.5-51.839 0-95.005 10.506-129.667 31.5-34.671 20.835-60.67 50.174-77.67 87.67C75.5 143.664 67.005 200.17 67.005 275.5v255.499zm134.495 210.003c15.67 0 28.833-5.501 40.004-16.503 10.993-11.17 16.494-24.334 16.494-39.995 0-15.502-5.501-28.834-16.494-40.004-11.17-11.002-24.334-16.503-40.004-16.503-15.502 0-28.834 5.501-39.995 16.503C150.502 655.67 145 669.002 145 684.504c0 15.661 5.501 28.825 16.503 39.995 11.161 11.002 24.493 16.503 39.995 16.503zm199 0c15.671 0 28.835-5.501 40.005-16.503 10.993-11.17 16.494-24.334 16.494-39.995 0-15.502-5.501-28.834-16.494-40.004-11.17-11.002-24.334-16.503-40.004-16.503-15.502 0-28.834 5.501-40.004 16.503-10.993 11.17-16.494 24.502-16.494 40.004 0 15.661 5.5 28.825 16.494 39.995 11.17 11.002 24.502 16.503 40.004 16.503z" id="path20"/></glyph><glyph unicode="n" horiz-adv-x="609" id="glyph26"><path d="M76.004 530.999H144v-95.164c27.496 36.327 57.835 63.496 91 81.327 33.334 17.84 69.503 26.84 108.665 26.84 39.835 0 75.171-10 105.998-30.17 30.835-20.162 53.672-47.33 68.341-81.496C532.664 398.329 540 345.17 540 273.002V-.001h-67.996v253c0 60.999-2.666 101.836-7.84 122.334-8.326 34.999-23.66 61.334-46.16 79.166-22.5 17.663-51.838 26.504-88.006 26.504-41.501 0-78.662-13.668-111.331-41.005-32.83-27.168-54.496-60.998-64.834-101.33-6.502-26.336-9.833-74.338-9.833-144.168V-.001H76.003v530.999z" id="path24"/></glyph><glyph unicode="k" horiz-adv-x="501" id="glyph30"><path d="M76.004 735.997H144v-419.66l247.996 214.662h99L198.665 277.998 508.004-.001h-96.839L144 240.164V-.001H76.004v735.997z" id="path28"/></glyph><glyph unicode="h" horiz-adv-x="609" id="glyph34"><path d="M76.004 735.997H144V435.171c27.664 36.328 58.331 63.664 91.497 81.664 33.333 18.169 69.333 27.169 108.168 27.169 39.835 0 75.171-10.001 105.998-30.172 30.835-20.161 53.672-47.33 68.341-81.168C532.664 398.666 540 345.5 540 273.004V0h-67.996v253.001c0 60.998-2.507 101.835-7.335 122.333-8.504 35-24.006 61.335-46.338 79.167-22.331 17.663-51.661 26.503-87.998 26.503-41.5 0-78.67-13.668-111.499-41.005-32.837-27.168-54.505-60.998-65.002-101.33C147.331 312.67 144 264.668 144 194.501V.001H76.004v735.996z" id="path32"/></glyph><glyph unicode="W" horiz-adv-x="959" id="glyph38"><path d="M47.002 717.997h72.664l147.835-516.995 208.33 516.995h12.498l203.173-516.995L840.17 717.997h72.833L706.499 0h-11.666L481.5 543.002 262.666 0h-10.33L47.004 717.997z" id="path36"/></glyph><glyph unicode="v" horiz-adv-x="554" id="glyph42"><path d="M25.999 530.999h71.504l178.83-387.664 177.503 387.664h73.17L283.995 0h-12.995L25.999 530.999z" id="path40"/></glyph><glyph unicode="e" horiz-adv-x="649" id="glyph46"><path d="m524.329 175.996 57.667-30.33c-18.992-36.833-40.827-66.668-65.666-89.336-24.83-22.5-52.662-39.827-83.666-51.662C401.5-7.166 366.5-13.004 327.33-13.004c-86.997 0-154.834 28.338-203.83 85.004-49.003 56.666-73.505 120.667-73.505 192.003 0 67.163 20.834 127.16 62.335 179.663 52.503 66.836 123.006 100.337 211.172 100.337 90.833 0 163.497-34.335 217.665-102.836 38.498-48.33 58.164-108.664 58.828-181.169H120.001c1.329-61.503 21.163-111.836 59.333-150.998 38.33-39.33 85.668-59.005 141.83-59.005 27.168 0 53.672 4.669 79.334 14.005 25.672 9.337 47.498 21.667 65.498 37.17 18 15.493 37.506 40.331 58.332 74.825zm.673 143.008c-9.168 36.496-22.5 65.498-40.004 87.334-17.663 21.826-40.827 39.33-69.661 52.662-28.834 13.332-59.173 20.002-90.841 20.002-52.494 0-97.494-16.671-135.16-50.165-27.673-24.501-48.339-61.006-62.503-109.834h398.17z" id="path44"/></glyph><glyph unicode="s" horiz-adv-x="388" id="glyph50"><path d="m344.002 473.332-43.999-45.337c-36.505 35.336-72.337 53.008-107.167 53.008-22.172 0-41.173-7.334-57.003-22.004-15.83-14.5-23.829-31.668-23.829-51.165 0-17.167 6.493-33.67 19.497-49.163 12.995-16.007 40.5-34.671 82.17-56.17 50.66-26.168 85.163-51.67 103.5-76.004 17.831-24.662 26.831-52.494 26.831-83.33 0-43.671-15.333-80.504-46-110.835-30.668-30.162-68.998-45.337-114.999-45.337-30.667 0-59.837 6.67-87.838 20.002C67.332 20.33 44.336 38.666 26 62.167l42.998 48.835c34.84-39.34 72-59.005 111.17-59.005 27.328 0 50.67 8.832 69.999 26.336C269.336 95.837 279 116.503 279 140.163c0 19.506-6.333 36.833-19 52.167-12.836 15.006-41.502 33.838-86.165 56.507-48.003 24.66-80.672 48.995-97.83 72.992-17.336 24.006-26.008 51.333-26.008 82.169 0 40.172 13.836 73.497 41.341 100.169 27.664 26.495 62.495 39.835 104.66 39.835 49.004 0 98.336-23.5 148.004-70.67z" id="path48"/></glyph><glyph unicode="b" horiz-adv-x="682" id="glyph54"><path d="M81 0v735.997h67.996v-297c28.674 35.167 60.67 61.503 96.174 78.838 35.495 17.496 74.33 26.168 116.495 26.168 75.171 0 139.332-27.169 192.499-81.505 53.167-54.496 79.84-120.331 79.84-198 0-76.5-26.841-141.998-80.504-196.166-53.664-54.168-118.17-81.337-193.668-81.337-43.335 0-82.497 9.169-117.664 27.505C207 32.837 175.996 60.501 148.996 97.662V-.001H81zm273.835 52.999c37.833 0 73 9.337 104.997 27.833 32.164 18.664 57.667 44.831 76.668 78.502 19.001 33.501 28.497 69.165 28.497 106.662 0 37.505-9.496 73.337-28.665 107.336-19.17 33.838-44.832 60.333-77.165 79.334-32.332 18.833-66.835 28.338-103.5 28.338-37.169 0-72.664-9.505-106.335-28.338-33.501-19-59.332-44.495-77.332-76.5-18-31.996-27-67.996-27-108.168 0-61.166 20.161-112.332 60.67-153.328C246.002 73.497 295.67 53 354.834 53z" id="path52"/></glyph><glyph unicode="m" horiz-adv-x="938" id="glyph58"><path d="M76.004 530.999H144v-91.834c23.837 33.83 48.171 58.669 73.337 74.339 34.495 20.33 70.831 30.499 108.833 30.499 25.831 0 50.165-5.005 73.33-15.174 23.163-9.992 41.996-23.492 56.665-40.164 14.67-16.83 27.337-40.836 38.17-72.168 22.669 41.67 51.166 73.338 85.164 95.005 34.166 21.667 70.83 32.501 110.17 32.501 36.664 0 69.165-9.337 97.166-27.833 28.17-18.504 48.995-44.335 62.663-77.5 13.669-33.175 20.498-82.834 20.498-149.173V0h-69.998v289.665c0 57.002-3.995 96.005-12.162 117.336-8.167 21.33-22.004 38.498-41.67 51.501C726.502 471.498 703.17 478 675.833 478c-32.997 0-63.328-9.832-90.664-29.33-27.505-19.505-47.498-45.504-60.166-78.005-12.667-32.501-19-86.829-19-162.833V-.001h-68.005v271.665c0 64-3.995 107.504-11.995 130.5-7.999 23.005-21.835 41.333-41.669 55.17-20.002 13.836-43.503 20.665-70.83 20.665-31.669 0-61.167-9.505-88.672-28.497-27.496-19-47.834-44.672-60.998-76.836C150.67 340.502 144 291.17 144 224.83V0H76.004v530.999z" id="path56"/></glyph><glyph unicode="g" horiz-adv-x="672" id="glyph62"><path d="M535.003 530.999h67.996V108.336c0-74.338-6.502-128.835-19.497-163.337-17.832-48.667-48.836-86.164-93.171-112.5C446.164-193.837 392.996-207 330.997-207c-45.496 0-86.333 6.502-122.66 19.329-36.168 13.004-65.675 30.34-88.503 52.175-22.668 21.658-43.671 53.663-62.832 95.492h73.993c20.17-35.327 46.17-61.494 78.174-78.493 31.828-17 71.495-25.503 118.665-25.503 46.666 0 85.996 8.663 118.001 25.83 32.165 17.336 55.001 39.004 68.66 65.003C528.166-27 535.004 15.165 535.004 73.666v27.336c-25.672-32.5-57.172-57.499-94.34-74.834C403.67 8.664 364.162 0 322.502 0c-48.836 0-94.669 12.163-137.667 36.337-43.007 24.165-76.172 56.826-99.673 97.662-23.5 41.005-35.167 86.005-35.167 135 0 49.172 12.171 94.837 36.673 137.338 24.334 42.334 58.163 75.995 101.33 100.665 43.166 24.662 88.671 37.001 136.497 37.001 39.667 0 76.837-8.167 111.171-24.334 34.335-16.166 67.5-43.166 99.337-81V531zM333.168 478c-38.666 0-74.666-9.337-107.832-28.001-33.165-18.664-59.173-44.504-78.006-77.5-18.832-32.998-28.328-68.67-28.328-107.168 0-58.163 19.497-106.166 58.5-144.328C216.495 83.001 267.164 64 329.162 64c62.832 0 113.333 18.833 151.503 56.498 38.17 37.834 57.331 87.334 57.331 148.836 0 39.995-8.832 75.667-26.327 107-17.503 31.33-42.501 56.16-74.675 74.329C404.831 468.83 370.17 478 333.167 478z" id="path60"/></glyph><glyph unicode="u" horiz-adv-x="607" id="glyph66"><path d="M67.004 530.999H135V283.163c0-60.493 3.33-101.994 9.833-124.831 9.664-32.501 28.497-58.163 56.001-76.996 27.496-18.833 60.502-28.338 98.664-28.338 38.17 0 70.503 9.169 97.166 27.505 26.504 18.496 45 42.493 55 72.496 6.84 20.498 10.338 63.833 10.338 130.163v247.836H532V270.663c0-73.16-8.503-128.16-25.67-165.162-17-37.169-42.83-66.17-77.165-87.006-34.335-20.994-77.333-31.5-129.162-31.5-51.839 0-95.005 10.506-129.667 31.5-34.671 20.835-60.67 50.174-77.67 87.67C75.5 143.664 67.005 200.17 67.005 275.5v255.499z" id="path64"/></glyph><glyph unicode="d" horiz-adv-x="685" id="glyph70"><path d="M606.002 735.997V0h-68.005v91.338c-28.665-34.84-60.661-61.007-96.334-78.334C406.168-4.332 367.165-13.004 325-13.004c-75.002 0-139.163 27.168-192.33 81.505C79.501 122.997 52.997 189 52.997 266.997c0 76.172 26.832 141.502 80.504 195.67 53.495 54.168 118.001 81.336 193.5 81.336 43.494 0 82.834-9.336 118.16-27.832 35.168-18.505 66.171-46.338 92.835-83.507v303.333h68.005zM332.335 478c-38.002 0-73.17-9.337-105.165-28.001-32.173-18.496-57.667-44.663-76.668-78.334-19.001-33.67-28.506-69.333-28.506-106.999 0-37.169 9.505-72.832 28.674-106.83 19.16-34.008 44.832-60.503 77.164-79.335C260.167 59.5 294.83 49.995 331.83 49.995c37.17 0 72.674 9.336 106.007 28.17 33.493 18.832 59.165 44.166 77.165 76.33 18 32.006 27 68.174 27 108.338 0 61.166-20.17 112.332-60.67 153.496C441 457.502 391.331 478 332.334 478z" id="path68"/></glyph><glyph horiz-adv-x="276" id="glyph72"/><glyph unicode="." horiz-adv-x="276" id="glyph76"><path d="M150.998 108c16.671 0 30.667-5.838 42.502-17.504 11.666-11.826 17.504-25.999 17.504-42.998 0-16.662-5.838-30.835-17.504-42.661-11.835-11.835-25.83-17.84-42.502-17.84-16.494 0-30.667 6.005-42.502 17.84C96.83 16.662 91.001 30.836 91.001 47.498c0 17 5.829 31.172 17.495 42.998C120.331 102.162 134.504 108 150.998 108z" id="path74"/></glyph><glyph unicode="P" horiz-adv-x="591" id="glyph80"><path d="M86.997 717.997h143.167c82 0 137.507-3.499 166.172-10.665 40.996-10.17 74.498-30.836 100.497-62.336 26.167-31.332 39.171-70.83 39.171-118.329 0-47.835-12.667-87.165-38.17-118.337-25.335-30.995-60.334-51.83-104.837-62.663-32.66-7.83-93.499-11.666-182.666-11.666h-51.334V0h-72v717.996zm72-69.998V403.998l121.668-1.497c49.172 0 85.172 4.5 108 13.5 22.836 9 40.836 23.333 53.831 43.335 13.004 19.993 19.506 42.493 19.506 67.163 0 23.997-6.502 46.169-19.506 66.171-12.995 19.993-30.33 34.166-51.66 42.661C369.495 643.835 334.664 648 285.997 648h-127z" id="path78"/></glyph><glyph unicode="a" horiz-adv-x="683" id="glyph84"><path d="M605.001 530.999V0h-68.005v91.338c-28.665-34.84-60.661-61.007-96.334-78.334C405.167-4.332 366.164-13.004 324-13.004c-75.002 0-139.163 27.168-192.33 81.505C78.5 122.997 51.996 189 51.996 266.997c0 76.172 26.832 141.502 80.504 195.67 53.495 54.168 118.001 81.336 193.5 81.336 43.494 0 82.834-9.168 118.17-27.505 35.158-18.327 66.161-46 92.825-83.16v97.661H605zM331.334 478c-38.002 0-73.17-9.337-105.165-28.001-32.173-18.496-57.667-44.663-76.668-78.334-19.001-33.67-28.497-69.333-28.497-106.999 0-37.169 9.496-72.832 28.665-106.83 19.16-34.007 44.832-60.502 77.164-79.335C259.166 59.5 293.837 49.995 330.83 49.995c37.17 0 72.674 9.337 106.007 28.17 33.493 18.832 59.165 44.167 77.165 76.33 18 32.006 27 68.174 27 108.338 0 61.166-20.17 112.332-60.67 153.496-40.332 41.173-90 61.671-148.997 61.671z" id="path82"/></glyph><glyph unicode="r" horiz-adv-x="300" id="glyph88"><path d="M49.996 530.999h70.007v-77.67c20.834 30.668 42.83 53.336 65.994 68.333 23.173 14.838 47.338 22.34 72.336 22.34 19.001 0 39.163-6.005 60.67-18l-35.672-57.339C269 474.83 256.996 478 247.163 478c-22.828 0-44.832-9.337-65.994-28.001-21.171-18.664-37.338-47.835-48.499-87.165-8.504-30.171-12.667-91.338-12.667-183.331V-.001H49.996v530.999z" id="path86"/></glyph><glyph unicode="l" horiz-adv-x="200" id="glyph92"><path d="M66.003 735.997h67.996V0H66.003v735.997z" id="path90"/></glyph><glyph unicode="z" horiz-adv-x="424" id="glyph96"><path d="M31.996 530.999H423L121.996 60.997h291.003V-.001H4.004l302.332 472.003H31.996v58.996z" id="path94"/></glyph><glyph unicode="G" horiz-adv-x="871" id="glyph100"><path d="m780.997 597.667-55.665-52.662c-40.164 39.33-84.163 69.165-131.997 89.495-47.835 20.33-94.5 30.499-140.005 30.499-56.498 0-110.33-13.828-161.327-41.501-51.175-27.664-90.833-65.162-118.834-112.668-28.17-47.33-42.175-97.326-42.175-150.165 0-54 14.501-105.334 43.503-154.16 29.002-48.667 69.166-86.838 120.331-114.67 51.334-27.833 107.336-41.838 168.333-41.838 74.002 0 136.674 20.835 187.84 62.336 51.165 41.5 81.495 95.5 91 161.672H512.997v69.998h310.004c-.673-110.835-33.67-199.001-99-264.171-65.506-65.162-152.84-97.83-262.506-97.83-132.998 0-238.33 45.168-316 135.663-59.661 69.67-89.496 150.165-89.496 241.671 0 67.828 17.168 131.164 51.334 189.832 34.335 58.5 81.328 104.333 140.997 137.33 59.837 33.006 127.337 49.5 202.668 49.5 60.998 0 118.497-10.993 172.329-32.828 53.84-22.004 106.503-57.003 157.668-105.502z" id="path98"/></glyph><glyph unicode="i" horiz-adv-x="200" id="glyph104"><path d="M99.833 749.001c15.502 0 28.665-5.501 39.667-16.671 11.002-10.993 16.503-24.493 16.503-39.995 0-15.334-5.501-28.666-16.503-39.668-11.002-11.17-24.165-16.67-39.667-16.67-15.334 0-28.33 5.5-39.331 16.67-11.002 11.002-16.503 24.334-16.503 39.668 0 15.502 5.501 29.002 16.503 39.995C71.504 743.5 84.499 749 99.832 749zm-33.83-218.002h67.996V0H66.003v530.999z" id="path102"/></glyph></font><font id="FontID0" horiz-adv-x="705" font-variant="normal" style="fill-rule:nonzero" font-style="normal" font-weight="400"><font-face font-family="CentSchbkCyrill BT" id="font-face107"/><missing-glyph id="missing-glyph111"><path d="M0 0z" id="path109"/></missing-glyph><glyph unicode="€" horiz-adv-x="545" id="glyph115"><path d="m472.173 253.008 44.835-5.843c-8.835-83.338-32.678-148.504-71.512-195.669-38.835-46.992-88.158-70.503-147.67-70.503-65.165 0-120.818 27.842-166.991 83.669C84.662 120.504 56 195.008 44.835 288H-9.008l16.835 39.008H42c0 5.496-.173 12-.504 19.496-.33 7.496-.488 12.33-.488 14.157 0 4.678.157 9.512.33 14.678.158 5.322.331 10.834.662 16.661h-61.008l18 38h46.835c12.834 95.827 41.18 171.165 85.338 225.827 44 54.835 98 82.173 161.843 82.173 26.662 0 51.654-5.496 74.993-16.33 23.165-11.008 45.007-27.497 65.165-49.67l29.842 62.173h29.166L502 443.01l-38.993-2c-10.834 82.331-29.842 145.165-57.007 188.331-27.166 43.166-60.993 64.662-101.67 64.662-46 0-81.826-22.662-107.668-68-26-45.339-40.489-110.661-43.654-196h239.165l-17.165-38h-224c0-4.835-.174-10.662-.504-17.67-.331-6.834-.504-11.322-.504-13.669 0-1.827.173-6.661.504-14.157.33-7.496.504-14 .504-19.496h195.323l-17.166-39.008H152.001c3.496-84.504 18.662-148.661 45.166-192.331C223.67 51.828 260.663 30 308.175 30c42.661 0 77.826 19.008 105.654 56.835 27.842 38 47.338 93.339 58.346 166.173z" id="path113"/></glyph><glyph unicode="b" horiz-adv-x="560" id="glyph119"><path d="M419.008 227.165c0 67.843-9.67 117.496-29.181 149.165-19.323 31.843-49.654 47.67-90.992 47.67-42.173 0-72.504-15.497-91.496-46.662-18.835-31.008-28.331-81.166-28.331-150.173 0-69.67 9.827-120 29.496-151.34 19.827-31.165 51.67-46.818 95.67-46.818 39.653 0 68.834 15.827 87.165 47.653 18.488 31.67 27.67 81.843 27.67 150.504zm-240 180.173c16 24.157 35.496 42 58.33 53.827 22.993 11.842 49.827 17.842 80.489 17.842 59.842 0 108.504-22.834 146-68.346C501.339 365.165 520 305.165 520 231.007c0-73.512-18.661-133.34-56-179.181C426.835 5.999 378.661-17.01 319.827-17.01c-34.33 0-64.661 6.677-91.323 19.843-26.834 13.165-52.677 34.661-77.669 64.173l-45.827-79.181H70.835c5.827 29.338 10 55.338 12.504 77.67 2.488 22.503 3.67 44.33 3.67 65.51V650c0 15.827-3.513 26.504-10.678 31.827-7.165 5.512-21.827 8.173-44 8.173-2.992 0-7.827-.173-14.504-.504-6.661-.33-12-.488-15.827-.488v38.992l177.008 12V407.338z" id="path117"/></glyph><glyph unicode="a" horiz-adv-x="523" id="glyph123"><path d="M344 249.008c-74.33-9.843-128.504-24.835-162.331-45.512-33.843-20.488-50.661-48.33-50.661-83.496 0-26.992 6.488-47.165 19.653-60.661C163.827 45.827 183.67 39.008 210 39.008c41.165 0 73.827 12.661 98 38 24 25.496 36 60.819 36 106v66zm5.827-185.181C330.33 39.497 304.504 20 272.173 5.67 240-8.835 206.173-16 170.661-16c-42 0-75.323 10.992-100.33 33.166C45.495 39.339 33.006 69.008 33.006 106c0 47.827 24.158 86.33 72.662 115.496 48.504 29.166 128 52.677 238.33 70.504v47.827c0 36.504-8 61.67-24.172 75.512-16 13.826-43.654 20.661-82.992 20.661-26.331 0-47.827-3.496-64.662-10.504-16.677-6.992-25.008-15.496-25.008-25.67 0-1.495 3.843-8.157 11.843-19.495 8-11.323 12-23.323 12-36.158 0-15.512-4.677-27.842-14-36.834-9.181-8.835-21.843-13.339-37.843-13.339-18.504 0-33.165 5.008-43.496 15.165-10.504 10-15.67 24-15.67 41.843 0 36.819 18 67.323 54 91.653 36 24.174 82.174 36.347 138.836 36.347 64.504 0 111.165-11.512 140-34.677C421.669 421.165 436 383.496 436 331.008v-232c0-15.339 3.166-26.835 9.339-34.504 6.157-7.67 15.496-11.496 27.827-11.496 6.504 0 14.504 2.33 24 6.819 9.496 4.504 15.842 6.834 19.165 6.834 2.835 0 5.496-1.496 8-4.661 2.504-2.992 3.67-6.835 3.67-11.496 0-13.339-9.67-26.677-28.835-40.173C479.827-3.165 458.174-10 434-10c-22.504 0-40.992 6.33-55.496 19.008C364 21.669 354.504 40 349.827 63.827z" id="path121"/></glyph></font>
</defs>
</svg>
